The Goonies 1985 25th Anniv (1080p Bluray x265 HEVC 10bit AAC 5.1...

  • Category Movies
  • Type HEVC/x265
  • Language English
  • Total size 4.8 GB
  • Uploaded By UTRplus
  • Downloads 1371
  • Last checked 8 hours ago
  • Date uploaded 4 days ago
  • Seeders 44
  • Leechers 9

The Goonies

AdventureComedyFamily

A young teenager named Mikey Walsh finds an old treasure map in his father's attic. Hoping to save their homes from demolition, Mikey and his friends Data Wang, Chunk Cohen, and Mouth Devereaux run off on a big quest to find the secret stash of Pirate One-Eyed Willie.

Infohash : 4040ED57DF0E2B402E542CCD57CA14F9F521C5CF



The Goonies 1985 25th Anniversary Edition in 1080p, encoded with x265 in HEVC and AAC 5.1 English, with subtitles!
Encoded using the time consuming 2 pass, 10 bit color at 3432 kbps, from a Blu-ray source, for the highest quality possible.



Media Information

Code:

General
Format : Matroska
Format version : Version 4 / Version 2
File size : 3.26 GiB
Duration : 1 h 53 min
Overall bit rate : 4 101 kb/s
Movie name : The Goonies
Encoded date : UTC 2017-07-26 17:33:28
Writing application : mkvmerge v12.0.0 ('Trust / Lust') 64bit
Writing library : libebml v1.3.4 + libmatroska v1.4.5

Video
ID : 1
Format : HEVC
Format/Info : High Efficiency Video Coding
Format profile : Main [email protected]@Main
Codec ID : V_MPEGH/ISO/HEVC
Duration : 1 h 53 min
Bit rate : 3 432 kb/s
Width : 1 920 pixels
Height : 800 pixels
Display aspect ratio : 2.40:1
Frame rate mode : Constant
Frame rate : 23.976 (24000/1001) FPS
Color space : YUV
Chroma subsampling : 4:2:0
Bit depth : 10 bits
Bits/(Pixel*Frame) : 0.093
Stream size : 2.73 GiB (84%)
Writing library : x265 2.5+2-18fa144d453e:[Windows][GCC 7.1.0][64 bit] 10bit
Encoding settings : cpuid=1173503 / frame-threads=3 / numa-pools=8 / wpp / no-pmode / no-pme / no-psnr / no-ssim / log-level=2 / input-csp=1 / input-res=1920x800 / interlace=0 / total-frames=163884 / level-idc=0 / high-tier=1 / uhd-bd=0 / ref=4 / no-allow-non-conformance / no-repeat-headers / annexb / no-aud / no-hrd / info / hash=0 / no-temporal-layers / open-gop / min-keyint=23 / keyint=250 / bframes=4 / b-adapt=2 / b-pyramid / bframe-bias=0 / rc-lookahead=25 / lookahead-slices=4 / scenecut=40 / no-intra-refresh / ctu=64 / min-cu-size=8 / rect / no-amp / max-tu-size=32 / tu-inter-depth=1 / tu-intra-depth=1 / limit-tu=0 / rdoq-level=2 / dynamic-rd=0.00 / no-ssim-rd / signhide / no-tskip / nr-intra=0 / nr-inter=0 / no-constrained-intra / strong-intra-smoothing / max-merge=3 / limit-refs=3 / limit-modes / me=3 / subme=3 / merange=57 / temporal-mvp / weightp / no-weightb / no-analyze-src-pics / deblock=0:0 / sao / no-sao-non-deblock / rd=4 / no-early-skip / rskip / no-fast-intra / no-tskip-fast / no-cu-lossless / no-b-intra / rdpenalty=0 / psy-rd=2.00 / psy-rdoq=1.00 / no-rd-refine / analysis-reuse-mode=0 / no-lossless / cbqpoffs=0 / crqpoffs=0 / rc=abr / bitrate=3432 / qcomp=0.60 / qpstep=4 / stats-write=0 / stats-read=2 / cplxblur=20.0 / qblur=0.5 / ipratio=1.40 / pbratio=1.30 / aq-mode=2 / aq-strength=1.00 / cutree / zone-count=0 / no-strict-cbr / qg-size=32 / no-rc-grain / qpmax=69 / qpmin=0 / no-const-vbv / sar=0 / overscan=0 / videoformat=5 / range=0 / colorprim=2 / transfer=2 / colormatrix=2 / chromaloc=0 / display-window=0 / max-cll=0,0 / min-luma=0 / max-luma=1023 / log2-max-poc-lsb=8 / vui-timing-info / vui-hrd-info / slices=1 / opt-qp-pps / opt-ref-list-length-pps / no-multi-pass-opt-rps / scenecut-bias=0.05 / no-opt-cu-delta-qp / no-aq-motion / no-hdr / no-hdr-opt / no-dhdr10-opt / analysis-reuse-level=5 / scale-factor=0 / refine-intra=0 / refine-inter=0 / refine-mv=0 / no-limit-sao / ctu-info=0
Default : Yes
Forced : No

Audio #1
ID : 2
Format : AAC
Format/Info : Advanced Audio Codec
Format profile : LC
Codec ID : A_AAC
Duration : 1 h 53 min
Bit rate : 461 kb/s
Channel(s) : 6 channels
Channel positions : Front: L C R, Side: L R, LFE
Sampling rate : 48.0 kHz
Frame rate : 46.875 FPS (1024 spf)
Compression mode : Lossy
Delay relative to video : 20 ms
Stream size : 376 MiB (11%)
Language : English
Default : Yes
Forced : No

Audio #2
ID : 3
Format : AAC
Format/Info : Advanced Audio Codec
Format profile : HE-AAC / LC
Codec ID : A_AAC
Duration : 1 h 53 min
Bit rate : 66.2 kb/s
Channel(s) : 2 channels
Channel positions : Front: L R
Sampling rate : 48.0 kHz / 24.0 kHz
Frame rate : 23.438 FPS (1024 spf)
Compression mode : Lossy
Delay relative to video : 40 ms
Stream size : 53.7 MiB (2%)
Title : Commentary
Language : English
Default : No
Forced : No

Text #1
ID : 4
Format : VobSub
Muxing mode : zlib
Codec ID : S_VOBSUB
Codec ID/Info : Picture based subtitle format used on DVDs
Duration : 1 h 53 min
Bit rate : 6 588 b/s
Count of elements : 1629
Stream size : 5.36 MiB (0%)
Language : English
Default : No
Forced : No

Text #2
ID : 5
Format : VobSub
Muxing mode : zlib
Codec ID : S_VOBSUB
Codec ID/Info : Picture based subtitle format used on DVDs
Duration : 1 h 53 min
Bit rate : 12.4 kb/s
Count of elements : 2532
Stream size : 10.1 MiB (0%)
Title : Commentary
Language : English
Default : No
Forced : No

Text #3
ID : 6
Format : VobSub
Muxing mode : zlib
Codec ID : S_VOBSUB
Codec ID/Info : Picture based subtitle format used on DVDs
Duration : 1 h 53 min
Bit rate : 4 386 b/s
Count of elements : 1055
Stream size : 3.55 MiB (0%)
Language : Danish
Default : No
Forced : No

Text #4
ID : 7
Format : VobSub
Muxing mode : zlib
Codec ID : S_VOBSUB
Codec ID/Info : Picture based subtitle format used on DVDs
Duration : 1 h 53 min
Bit rate : 9 358 b/s
Count of elements : 2387
Stream size : 7.60 MiB (0%)
Title : Commentary
Language : Danish
Default : No
Forced : No

Text #5
ID : 8
Format : VobSub
Muxing mode : zlib
Codec ID : S_VOBSUB
Codec ID/Info : Picture based subtitle format used on DVDs
Duration : 1 h 53 min
Bit rate : 4 559 b/s
Count of elements : 1045
Stream size : 3.69 MiB (0%)
Language : Finnish
Default : No
Forced : No

Text #6
ID : 9
Format : VobSub
Muxing mode : zlib
Codec ID : S_VOBSUB
Codec ID/Info : Picture based subtitle format used on DVDs
Duration : 1 h 53 min
Bit rate : 9 420 b/s
Count of elements : 2175
Stream size : 7.65 MiB (0%)
Title : Commentary
Language : Finnish
Default : No
Forced : No

Text #7
ID : 10
Format : VobSub
Muxing mode : zlib
Codec ID : S_VOBSUB
Codec ID/Info : Picture based subtitle format used on DVDs
Duration : 1 h 53 min
Bit rate : 5 932 b/s
Count of elements : 1451
Stream size : 4.80 MiB (0%)
Language : German
Default : No
Forced : No

Text #8
ID : 11
Format : VobSub
Muxing mode : zlib
Codec ID : S_VOBSUB
Codec ID/Info : Picture based subtitle format used on DVDs
Duration : 1 h 53 min
Bit rate : 12.7 kb/s
Count of elements : 2571
Stream size : 10.4 MiB (0%)
Title : Commentary
Language : German
Default : No
Forced : No

Text #9
ID : 12
Format : VobSub
Muxing mode : zlib
Codec ID : S_VOBSUB
Codec ID/Info : Picture based subtitle format used on DVDs
Duration : 1 h 53 min
Bit rate : 5 430 b/s
Count of elements : 1380
Stream size : 4.40 MiB (0%)
Language : Italian
Default : No
Forced : No

Text #10
ID : 13
Format : VobSub
Muxing mode : zlib
Codec ID : S_VOBSUB
Codec ID/Info : Picture based subtitle format used on DVDs
Duration : 1 h 53 min
Bit rate : 11.4 kb/s
Count of elements : 2465
Stream size : 9.32 MiB (0%)
Title : Commentary
Language : Italian
Default : No
Forced : No

Text #11
ID : 14
Format : VobSub
Muxing mode : zlib
Codec ID : S_VOBSUB
Codec ID/Info : Picture based subtitle format used on DVDs
Duration : 1 h 53 min
Bit rate : 3 572 b/s
Count of elements : 821
Stream size : 2.90 MiB (0%)
Language : Norwegian Bokmal
Default : No
Forced : No

Text #12
ID : 15
Format : VobSub
Muxing mode : zlib
Codec ID : S_VOBSUB
Codec ID/Info : Picture based subtitle format used on DVDs
Duration : 1 h 53 min
Bit rate : 9 923 b/s
Count of elements : 2275
Stream size : 8.06 MiB (0%)
Title : Commentary
Language : Norwegian Bokmal
Default : No
Forced : No

Text #13
ID : 16
Format : VobSub
Muxing mode : zlib
Codec ID : S_VOBSUB
Codec ID/Info : Picture based subtitle format used on DVDs
Duration : 1 h 53 min
Bit rate : 4 540 b/s
Count of elements : 1216
Stream size : 3.68 MiB (0%)
Language : Portuguese
Default : No
Forced : No

Text #14
ID : 17
Format : VobSub
Muxing mode : zlib
Codec ID : S_VOBSUB
Codec ID/Info : Picture based subtitle format used on DVDs
Duration : 1 h 53 min
Bit rate : 11.1 kb/s
Count of elements : 2408
Stream size : 9.02 MiB (0%)
Title : Commentary
Language : Portuguese
Default : No
Forced : No

Text #15
ID : 18
Format : VobSub
Muxing mode : zlib
Codec ID : S_VOBSUB
Codec ID/Info : Picture based subtitle format used on DVDs
Duration : 1 h 53 min
Bit rate : 4 833 b/s
Count of elements : 1377
Stream size : 3.92 MiB (0%)
Language : Spanish
Default : No
Forced : No

Text #16
ID : 19
Format : VobSub
Muxing mode : zlib
Codec ID : S_VOBSUB
Codec ID/Info : Picture based subtitle format used on DVDs
Duration : 1 h 53 min
Bit rate : 9 900 b/s
Count of elements : 2421
Stream size : 8.06 MiB (0%)
Title : Commentary
Language : Spanish
Default : No
Forced : No

Text #17
ID : 20
Format : VobSub
Muxing mode : zlib
Codec ID : S_VOBSUB
Codec ID/Info : Picture based subtitle format used on DVDs
Duration : 1 h 53 min
Bit rate : 3 787 b/s
Count of elements : 833
Stream size : 3.07 MiB (0%)
Language : Swedish
Default : No
Forced : No

Text #18
ID : 21
Format : VobSub
Muxing mode : zlib
Codec ID : S_VOBSUB
Codec ID/Info : Picture based subtitle format used on DVDs
Duration : 1 h 53 min
Bit rate : 8 001 b/s
Count of elements : 2234
Stream size : 6.50 MiB (0%)
Title : Commentary
Language : Swedish
Default : No
Forced : No

Menu
00:00:00.000 : en:Chapter 01
00:05:04.762 : en:Chapter 02
00:07:08.678 : en:Chapter 03
00:09:54.302 : en:Chapter 04
00:13:49.537 : en:Chapter 05
00:20:02.492 : en:Chapter 06
00:22:45.030 : en:Chapter 07
00:25:37.661 : en:Chapter 08
00:27:13.340 : en:Chapter 09
00:30:40.421 : en:Chapter 10
00:33:34.137 : en:Chapter 11
00:36:48.122 : en:Chapter 12
00:38:42.403 : en:Chapter 13
00:42:13.447 : en:Chapter 14
00:46:10.517 : en:Chapter 15
00:48:43.170 : en:Chapter 16
00:49:47.776 : en:Chapter 17
00:52:52.460 : en:Chapter 18
00:55:47.802 : en:Chapter 19
00:58:12.322 : en:Chapter 20
00:59:31.484 : en:Chapter 21
01:03:34.352 : en:Chapter 22
01:07:11.902 : en:Chapter 23
01:09:46.015 : en:Chapter 24
01:12:47.905 : en:Chapter 25
01:15:20.182 : en:Chapter 26
01:18:18.735 : en:Chapter 27
01:22:06.755 : en:Chapter 28
01:23:39.931 : en:Chapter 29
01:27:15.230 : en:Chapter 30
01:30:34.303 : en:Chapter 31
01:33:39.447 : en:Chapter 32
01:38:39.038 : en:Chapter 33
01:41:27.539 : en:Chapter 34
01:45:15.058 : en:Chapter 35
01:47:13.301 : en:Chapter 36
01:48:31.338 : en:Chapter 37


Source Information

Code:

Complete name : The_Goonies_t00.mkv
File size : 21.2 GiB
Duration : 1 h 53 min
Overall bit rate mode : Variable
Overall bit rate : 26.6 Mb/s


Files:

The Goonies 1985 25th Anniv (1080p Bluray x265 HEVC 10bit AAC 5.1 Tigole) Featurettes
  • Cyndi Lauper - The Goonies 'r' Good Enough.mkv (99.0 MB)
  • Deleted Scenes.mkv (29.9 MB)
  • Hidden Treasures.mkv (1.3 GB)
  • The Making of The Goonies.mkv (31.0 MB)
  • Trailer.mkv (12.1 MB)
  • The Goonies 1985 25th Anniv (1080p x265 10bit Tigole).mkv (3.3 GB)

Comments

Code:

  • udp://tracker.torrent.eu.org:451/announce
  • udp://tracker.opentrackr.org:1337/announce
  • udp://tracker.coppersurfer.tk:6969/announce